top of page

Catholic Daily Quotes

Public·8 members
Henry Yakushev
Henry Yakushev

Twilight Breaking Dawn Part 2 1080p Torrent



GeneralUnique ID : 97380884814066773842097111257536565438 (0x4942E04F215F95A1DF242F44933090BE)Complete name : The Twilight Saga Breaking Dawn - Part 2 (2012) (1080p BDRip x265 10bit DTS-HD MA 7.1 - r0b0t) [TAoE].mkvFormat : MatroskaFormat version : Version 4File size : 9.13 GiBDuration : 1 h 55 minOverall bit rate mode : VariableOverall bit rate : 11.4 Mb/sMovie name : The Twilight Saga: Breaking Dawn - Part 2 (2012)Encoded date : UTC 2020-07-04 06:24:32Writing application : mkvmerge v39.0.0 ('In The Waiting Line') 64-bitWriting library : libebml v1.3.9 + libmatroska v1.5.2VideoID : 1Format : HEVCFormat/Info : High Efficiency Video CodingFormat profile : Main [email protected]@MainCodec ID : V_MPEGH/ISO/HEVCDuration : 1 h 55 minBit rate : 5 856 kb/sWidth : 1 920 pixelsHeight : 800 pixelsDisplay aspect ratio : 2.40:1Frame rate mode : ConstantFrame rate : 23.976 (24000/1001) FPSColor space : YUVChroma subsampling : 4:2:0Bit depth : 10 bitsBits/(Pixel*Frame) : 0.159Stream size : 4.71 GiB (52%)Writing library : x265 3.4+6-g73f96ff39:[Windows][GCC 11.0.0][64 bit] 10bitEncoding settings : cpuid=1111039 / frame-threads=4 / numa-pools=16 / wpp / no-pmode / no-pme / no-psnr / no-ssim / log-level=2 / input-csp=1 / input-res=1920x800 / interlace=0 / total-frames=165740 / level-idc=0 / high-tier=1 / uhd-bd=0 / ref=4 / no-allow-non-conformance / no-repeat-headers / annexb / no-aud / no-hrd / info / hash=0 / no-temporal-layers / open-gop / min-keyint=23 / keyint=250 / gop-lookahead=0 / bframes=8 / b-adapt=2 / b-pyramid / bframe-bias=0 / rc-lookahead=80 / lookahead-slices=4 / scenecut=40 / hist-scenecut=0 / radl=0 / no-splice / no-intra-refresh / ctu=64 / min-cu-size=8 / no-rect / no-amp / max-tu-size=32 / tu-inter-depth=1 / tu-intra-depth=1 / limit-tu=0 / rdoq-level=2 / dynamic-rd=0.00 / no-ssim-rd / signhide / no-tskip / nr-intra=0 / nr-inter=0 / no-constrained-intra / no-strong-intra-smoothing / max-merge=3 / limit-refs=3 / limit-modes / me=3 / subme=5 / merange=57 / temporal-mvp / no-frame-dup / no-hme / weightp / no-weightb / no-analyze-src-pics / deblock=0:0 / sao / no-sao-non-deblock / rd=4 / selective-sao=4 / no-early-skip / rskip / no-fast-intra / no-tskip-fast / no-cu-lossless / no-b-intra / no-splitrd-skip / rdpenalty=0 / psy-rd=1.30 / psy-rdoq=2.00 / no-rd-refine / no-lossless / cbqpoffs=0 / crqpoffs=0 / rc=crf / crf=18.0 / qcomp=0.60 / qpstep=4 / stats-write=0 / stats-read=0 / ipratio=1.40 / pbratio=1.30 / aq-mode=4 / aq-strength=1.10 / cutree / zone-count=0 / no-strict-cbr / qg-size=32 / no-rc-grain / qpmax=69 / qpmin=0 / no-const-vbv / sar=0 / overscan=0 / videoformat=5 / range=0 / colorprim=2 / transfer=2 / colormatrix=2 / chromaloc=0 / display-window=0 / cll=0,0 / min-luma=0 / max-luma=1023 / log2-max-poc-lsb=8 / vui-timing-info / vui-hrd-info / slices=1 / no-opt-qp-pps / no-opt-ref-list-length-pps / no-multi-pass-opt-rps / scenecut-bias=0.05 / hist-threshold=0.01 / no-opt-cu-delta-qp / no-aq-motion / no-hdr10 / no-hdr10-opt / no-dhdr10-opt / no-idr-recovery-sei / analysis-reuse-level=0 / analysis-save-reuse-level=0 / analysis-load-reuse-level=0 / scale-factor=0 / refine-intra=0 / refine-inter=0 / refine-mv=1 / refine-ctu-distortion=0 / no-limit-sao / ctu-info=0 / no-lowpass-dct / refine-analysis-type=0 / copy-pic=1 / max-ausize-factor=1.0 / no-dynamic-refine / no-single-sei / no-hevc-aq / no-svt / no-field / qp-adaptation-range=1.00 / no-scenecut-aware-qpconformance-window-offsets / right=0 / bottom=0 / decoder-max-rate=0Default : YesForced : NoAudio #1ID : 2Format : DTS XLLFormat/Info : Digital Theater SystemsCommercial name : DTS-HD Master AudioCodec ID : A_DTSDuration : 1 h 55 minBit rate mode : VariableBit rate : 5 253 kb/sChannel(s) : 8 channelsChannel layout : C L R LFE Lb Rb Lss RssSampling rate : 48.0 kHzFrame rate : 93.750 FPS (512 SPF)Bit depth : 24 bitsCompression mode : LosslessStream size : 4.23 GiB (46%)Title : DTS-HD Master Audio / 7.1 / 48 kHz / 5253 kbps / 2Language : EnglishDefault : NoForced : NoAudio #2ID : 3Format : AC-3Format/Info : Audio Coding 3Commercial name : Dolby DigitalCodec ID : A_AC3Duration : 1 h 55 minBit rate mode : ConstantBit rate : 224 kb/sChannel(s) : 2 channelsChannel layout : L RSampling rate : 48.0 kHzFrame rate : 31.250 FPS (1536 SPF)Compression mode : LossyStream size : 185 MiB (2%)Title : Commentary by Director Bill CondonLanguage : EnglishService kind : Complete MainDefault : NoForced : NoText #1ID : 4Format : PGSMuxing mode : zlibCodec ID : S_HDMV/PGSCodec ID/Info : Picture based subtitle format used on BDs/HD-DVDsDuration : 3 s 712 msBit rate : 2 243 b/sCount of elements : 6Stream size : 1.02 KiB (0%)Title : forced for foreign partsLanguage : EnglishDefault : YesForced : NoText #2ID : 5Format : PGSMuxing mode : zlibCodec ID : S_HDMV/PGSCodec ID/Info : Picture based subtitle format used on BDs/HD-DVDsDuration : 1 h 38 minBit rate : 26.8 kb/sCount of elements : 2193Stream size : 18.8 MiB (0%)Title : SDHLanguage : EnglishDefault : NoForced : NoText #3ID : 6Format : PGSMuxing mode : zlibCodec ID : S_HDMV/PGSCodec ID/Info : Picture based subtitle format used on BDs/HD-DVDsDuration : 1 h 45 minBit rate : 21.6 kb/sCount of elements : 1944Stream size : 16.3 MiB (0%)Title : Latin AmericanLanguage : SpanishDefault : NoForced : NoMenu00:00:00.000 : en:Chapter 100:08:04.067 : en:Chapter 200:13:35.398 : en:Chapter 300:18:36.073 : en:Chapter 400:22:11.080 : en:Chapter 500:30:03.343 : en:Chapter 600:38:06.159 : en:Chapter 700:44:23.619 : en:Chapter 800:48:35.830 : en:Chapter 900:52:31.440 : en:Chapter 1000:58:11.947 : en:Chapter 1101:02:10.352 : en:Chapter 1201:08:26.060 : en:Chapter 1301:11:38.503 : en:Chapter 1401:20:35.456 : en:Chapter 1501:24:57.509 : en:Chapter 1601:32:17.157 : en:Chapter 1701:38:08.966 : en:Chapter 18




Twilight Breaking Dawn Part 2 1080p Torrent



GeneralUnique ID : 207473539671674656250761708896240340267 (0x9C15F3450970BAFFB661419542510D2B)Complete name : The.Twilight.Saga.Breaking.Dawn.Part.2.2012.1080p.BluRay.REMUX.AVC.DTS-HD.MA.7.1-EPSiLON.mkvFormat : MatroskaFormat version : Version 4File size : 23.7 GiBDuration : 1 h 55 minOverall bit rate mode : VariableOverall bit rate : 29.4 Mb/sMovie name : The Twilight Saga: Breaking Dawn - Part 2 (2012)Encoded date : UTC 2018-07-05 14:24:54Writing application : mkvmerge v24.0.0 ('Beyond The Pale') 64-bitWriting library : libebml v1.3.6 + libmatroska v1.4.9VideoID : 1Format : AVCFormat/Info : Advanced Video CodecFormat profile : [email protected] Format settings : CABAC / 4 Ref FramesFormat settings, CABAC : YesFormat settings, Reference : 4 framesCodec ID : V_MPEG4/ISO/AVCDuration : 1 h 55 minBit rate mode : VariableBit rate : 23.9 Mb/sMaximum bit rate : 37.0 Mb/sWidth : 1 920 pixelsHeight : 1 080 pixelsDisplay aspect ratio : 16:9Frame rate mode : ConstantFrame rate : 23.976 (24000/1001) FPSColor space : YUVChroma subsampling : 4:2:0Bit depth : 8 bitsScan type : ProgressiveBits/(Pixel*Frame) : 0.481Stream size : 19.2 GiB (81%)Title : MPEG-4 AVC Video / 23985 kbps / 1080p / 23.976 fps / 16:9 / High Profile 4.1Language : EnglishDefault : YesForced : NoAudio #1ID : 2Format : DTS XLLFormat/Info : Digital Theater SystemsCommercial name : DTS-HD Master AudioCodec ID : A_DTSDuration : 1 h 55 minBit rate mode : VariableBit rate : 5 253 kb/sChannel(s) : 8 channelsChannel layout : C L R LFE Lb Rb Lss RssSampling rate : 48.0 kHzFrame rate : 93.750 FPS (512 SPF)Bit depth : 24 bitsCompression mode : LosslessStream size : 4.23 GiB (18%)Title : DTS-HD Master Audio / 7.1 / 48 kHz / 5253 kbps / 24-bitLanguage : EnglishDefault : YesForced : NoAudio #2ID : 3Format : AC-3Format/Info : Audio Coding 3Commercial name : Dolby DigitalCodec ID : A_AC3Duration : 1 h 55 minBit rate mode : ConstantBit rate : 224 kb/sChannel(s) : 2 channelsChannel layout : L RSampling rate : 48.0 kHzFrame rate : 31.250 FPS (1536 SPF)Compression mode : LossyStream size : 185 MiB (1%)Title : Commentary by Director Bill CondonLanguage : EnglishService kind : Complete MainDefault : NoForced : NoText #1ID : 4Format : PGSCodec ID : S_HDMV/PGSCodec ID/Info : Picture based subtitle format used on BDs/HD-DVDsDuration : 3 s 712 msBit rate : 2 243 b/sCount of elements : 6Stream size : 1.02 KiB (0%)Title : forced for foreign partsLanguage : EnglishDefault : YesForced : NoText #2ID : 5Format : PGSCodec ID : S_HDMV/PGSCodec ID/Info : Picture based subtitle format used on BDs/HD-DVDsDuration : 1 h 38 minBit rate : 26.8 kb/sCount of elements : 2193Stream size : 18.8 MiB (0%)Title : SDHLanguage : EnglishDefault : NoForced : NoText #3ID : 6Format : PGSCodec ID : S_HDMV/PGSCodec ID/Info : Picture based subtitle format used on BDs/HD-DVDsDuration : 1 h 45 minBit rate : 21.6 kb/sCount of elements : 1944Stream size : 16.3 MiB (0%)Title : Latin AmericanLanguage : SpanishDefault : NoForced : NoMenu00:00:00.000 : en:Chapter 100:08:04.067 : en:Chapter 200:13:35.398 : en:Chapter 300:18:36.073 : en:Chapter 400:22:11.080 : en:Chapter 500:30:03.343 : en:Chapter 600:38:06.159 : en:Chapter 700:44:23.619 : en:Chapter 800:48:35.830 : en:Chapter 900:52:31.440 : en:Chapter 1000:58:11.947 : en:Chapter 1101:02:10.352 : en:Chapter 1201:08:26.060 : en:Chapter 1301:11:38.503 : en:Chapter 1401:20:35.456 : en:Chapter 1501:24:57.509 : en:Chapter 1601:32:17.157 : en:Chapter 1701:38:08.966 : en:Chapter 18


About

Welcome to the group! You can connect with other members, ge...

Members

bottom of page